Jump to content
Computer Audiophile

Search the Community

Showing results for tags 'megadeth'.



More search options

  • Search By Tags

    Type tags separated by commas.
  • Search By Author

Content Type


Categories

  • Reviews
  • CA Academy
  • Audio Shows
  • Bits and Bytes
  • Digital Vinyl
  • The Music In Me

Blogs

There are no results to display.

There are no results to display.

Categories

  • Downloads
  • CA Sample Club's Files

Forums

  • Equipment
    • General Forum
    • Music Servers
    • DAC - Digital to Analog Conversion
    • Disk Storage / Music Library Storage
    • Networking, Networked Audio, and Streaming
    • Headphones & Speakers
    • Software
    • DSP, Room Correction, and Multi Channel Audio
    • iTunes and Everything Apple
    • Article Comments
  • Music
    • Music Downloads & Streaming
    • Music in General
    • Music Analysis - Objective & Subjective
    • In Memoriam
  • Sponsored Forums
    • Sonore (Sponsored)
    • HDtracks (Sponsored)
    • UpTone Audio (Sponsored)
    • Highend-AudioPC (Sponsored)
    • Abbingdon Music Research / iFi audio (Sponsored)
    • Ciamara (Sponsored)
    • Vinnie Rossi (Sponsored)
    • Klipsch (Sponsored)
  • CA All Access
    • Buy & Sell Audio and Computer Components
  • Allo's Allo Topics
  • CA Sample Club's Topics
  • CA Sample Club's Q & A

Found 1 result

  1. Wow, Megadeth's latest album, Super Collider actually has a much higher DR on the HDTracks download than on the CD. Now that's how HDTracks should be. Not just a 24bit version of a brickwalled mastering, but a true audiophile mastering in 24bit. Guess Mustaine must have something to do with this since it's their first album on his own label. HDTracks: DR Peak RMS Duration Track -------------------------------------------------------------------------------- DR11 0.00 dB -11.75 dB 4:16 01-Kingmaker DR11 0.00 dB -11.59 dB 4:12 02-Super Collider DR11 0.00 dB -11.35 dB 4:11 03-Burn! DR10 0.00 dB -11.10 dB 3:58 04-Built For War DR11 0.00 dB -11.91 dB 4:12 05-Off The Edge DR11 0.00 dB -11.91 dB 4:46 06-Dance In The Rain DR11 0.00 dB -11.85 dB 3:51 07-Beginning Of Sorrow DR12 0.00 dB -12.83 dB 4:28 08-The Blackest Crow DR11 0.00 dB -12.06 dB 4:28 09-Forget To Remember DR11 0.00 dB -12.49 dB 3:47 10-Don't Turn Your Back... DR11 0.00 dB -12.44 dB 3:10 11-Cold Sweat -------------------------------------------------------------------------------- Number of tracks: 11 Official DR value: DR11 CD version: DR Peak RMS Duration Track -------------------------------------------------------------------------------- DR6 0.00 dB -6.61 dB 4:16 01-Kingmaker DR6 0.00 dB -6.35 dB 4:12 02-Super Collider DR5 0.00 dB -6.20 dB 4:11 03-Burn! DR5 0.00 dB -5.93 dB 3:58 04-Built for War DR6 0.00 dB -7.01 dB 4:12 05-Off the Edge DR6 0.00 dB -6.72 dB 4:46 06-Dance in the Rain DR6 0.00 dB -6.66 dB 3:51 07-Beginning of Sorrow DR6 0.00 dB -7.59 dB 4:28 08-The Blackest Crow DR6 0.00 dB -6.79 dB 4:28 09-Forget to Remember DR6 0.00 dB -7.40 dB 3:47 10-Don’t Turn Your Back… DR6 0.00 dB -7.26 dB 3:10 11-Cold Sweat (Thin Lizzy cover) -------------------------------------------------------------------------------- Number of tracks: 11 Official DR value: DR6
×